Wav" wave index 01 00:00:00 track slot machines kostenlos spielen 06 audio title "Ain't Misbehavin' I'm savin' my love for you" performer "Bing Crosby" index 00 03:17:08file "06-Ain't Misbehavin' I'm savin' my love for you.
Gap handling : Not detected, thus appended to previous track.
Wav Peak level 100.0 Track quality 100.0 Test CRC E449DF91 Copy wolfgang brettschneider spielothek essen CRC E449DF91 Track not present in AccurateRip database Copy OK Track 2 Filename K:My Music 302-When my baby smiles.
Additional command line options : -6 -V -T "artista" -T "titlet" -T "albumg" -T "datey" -T "tracknumbern" -T "genrem" -T "commente" s -o.
Wav" wave index 01 00:00:00 track 08 audio title "This love of mine" performer "Bing Crosby" index 00 02:58:57 file "08-This love of mine.Wav" wave index 01 00:00:00 track 05 audio title "Prisoner of love" performer "Bing Crosby" index 00 02:55:01file "05-Prisoner of love.He was called the father of my singing career by no less than Frank Sinatra, who influenced an entire generation of vocalists himself.Wav" wave index 01 00:00:00 track 08 audio title "This love of mine" performer "Bing Crosby" index 00 02:58:57file "08-This love of mine.Makci MB :16 Makci Trance (lossless) (trance, vocal trance, progressive trance) CD VA - Trance Voices.Wav" wave index 01 00:00:00 track 11 audio title "Mona Lisa" performer "Bing Crosby" index 00 03:10:55 file "11-Mona Lisa.Wav Peak level.8 Track quality.9 Test CRC 9BB4D1CD Copy CRC 9BB4D1CD Track not present in AccurateRip database Copy OK Track 7 Filename K:My Music 307-Paper Doll.Read mode : Secure, utilize accurate stream : Yes, defeat audio cache :.



Makci MB :16 Makci Nu Jazz, Acid Jazz, Future Jazz (lossless) (Broken Beat, Future Jazz) CD Hajime Yoshizawa - Japan - 2008, flac.
Wav" wave index 01 00:00:00 track 10 audio title "Blues in the night" performer "Bing Crosby" index 00 03:01:15 file "10-Blues in the night.
Wav Peak level.0 Track quality 100.0 Test CRC 8A3406B9 Copy CRC 8A3406B9 Track not present in AccurateRip database Copy OK Track 3 Filename K:My Music 303-My blue heaven.Anton.43 GB :55 anton1404 Indie, Post-Rock Post-Punk (lossless) (Indie Pop / Female Vocal) CD Weyes Blood - Titanic Rising - 2019.Bing Crosby - Songs I Wish I Had Sung.Wav" wave index 01 00:00:00 track 09 audio title "Thanks for the memory" performer "Bing Crosby" index 00 02:48:35file "09-Thanks for the memory.New Tricks was a set of sides Crosby cut with the Buddy Cole Quartet (Cole was Crosbys pianist for a number of years) for use on radio and were released on Decca in 1957.Wav" wave index 01 00:00:00 track 03 audio title "My blue heaven" performer "Bing Crosby" index 00 03:07:55 file "03-My blue heaven.His influence on 20th century popular online casino novoline spiele singing should not be underestimated.Bing Crosby / Songs I Wish I Had Sung The First Time Around.Wav" wave index 01 00:00:00 track 12 audio title "Memories are made of this" performer "Bing Crosby" index 00 03:00:36 file "12-Memories are made of this.Command line compressor : C:Program FilesExact Audio Copyflacflac.Wav" wave index 01 00:00:00 track 09 audio title "Thanks for the memory" performer "Bing Crosby" index 00 02:48:35 file "09-Thanks for the memory.Wav Peak level.1 Track quality 100.0 Test CRC E75FE15E Copy CRC E75FE15E Track not present in AccurateRip database Copy OK Track 5 Filename K:My Music 305-Prisoner of love.Bing covered some of his musical rivals' biggest hits, such as Al Jolson's "April Showers" and Nat King Cole's "Mona Lisa".Wav" wave index 01 00:00:00 track 07 audio title "Paper Doll" performer "Bing Crosby" index 00 02:51:22file "07-Paper Doll.

Wav Peak level.1 Track quality 100.0 Test CRC B1A6440F Copy CRC B1A6440F Track not present in AccurateRip database Copy OK Track 4 Filename K:My Music 304-A little kiss each morning A little kiss each tonight.